Главная Торренты / Файлы Топ раздачи Персоны кино Форум Войти Восстановить Пароль Регистрация Служба техподдержки 

Привет, Гость

Войти на сайт
Регистрация
Восстановить Пароль

Спасибо Вам
Мы благодарны этим людям в поддержке сайта:
Нет данных для показа
Попади и ты в этот блок, поставь оценку 5 и получи 500 MB к отдаче:
Войти на сайт сейчас.

Наша группа в ВК

Поделитесь в социальных сетях


Самые активные релизы за неделю
Нет релизов к показу

:: Детали раздачи

Приключение двух нянь / Adventures in Babysitting (Джон Шульц) [2016, комедия, WEB-DLRip-AVC] MVO

Скачать Скачать .torrent файл (основная ссылка для скачивания файла)
Смотреть / Слушать онлайн просмотр (ссылка для просмотра файла через плагин 'Torrent Stream')
Magnet-ссылка (альтернативная ссылка для скачивания файла)
Теги / Метки комедия, 2016
Описание
Перевод: Любительский (многоголосый закадровый) [АНАНАС]
Cубтитры: Русский, Английский
Формат: WEB-DLRip-AVC, MKV, H.264, AC3
Страна: США
Режиссер: Джон Шульц

Жанр: комедия
Продолжительность: 01:33:42
Год выпуска: 2016
В ролях: Сабрина Карпентер,София Карсон,Джиллиан Вигмэн,Алиса Сковбай
Описание: Два подростка и соперницы, няни Дженни и Лола присматривают за детьми и они объединяются, чтобы найти одного ребёнка, который случайно сбегает в большой город без какого-либо надзора. Но знают ли что их ожидает во время поиска?

http://imdb.snick.ru/ratefor/02//tt4456850.png
http://rating.kinopoisk.ru/897603.gif http://turbopic.org/img/2011_03/19/84f2b3e1-162c-48ef-a9f2-be882ddb0ce4.png

Видео: 1024x576 (16:9), 23.976 fps, MPEG4 AVC (х264) http://www.videolan.org/x264.html
- options: cabac=1 ref=2 deblock=1:0:0 analyse=0x3:0x113 me=hex subme=2 psy=1 psy_rd=1.00:0.00 mixed_ref=0 me_range=16 chroma_me=1 trellis=0 8x8dct=1 cqm=0 deadzone=21,11 fast_pskip=1 chroma_qp_offset=0 threads=4 sliced_threads=0 nr=250 decimate=1 interlaced=0 bluray_compat=0 constrained_intra=0 bframes=0 weightp=1 keyint=250 keyint_min=24 scenecut=40 intra_refresh=0 rc_lookahead=10 rc=2pass mbtree=1 bitrate=4920 ratetol=1.0 qcomp=0.60 qpmin=5 qpmax=69 qpstep=4 cplxblur=20.0 qblur=0.5 ip_ratio=1.40 aq=1:1.00
DURATION : 01:33:38.827000000

Audio #1
ID : 2
Format : AC-3
Format/Info : Audio Coding 3
Mode extension : CM (complete main)
Format settings, Endianness : Big
Codec ID : A_AC3
Duration : 1h 33mn
Bit rate mode : Constant
Bit rate : 224 Kbps
Channel(s) : 2 channels
Channel positions : Front: L R
Sampling rate : 48.0 KHz
Bit depth : 16 bits
Compression mode : Lossy
Stream size : 150 MiB (8%)
Default : Yes
Forced : No
DURATION : 01:33:38.976000000

Audio #2
ID : 3
Format : AC-3
Format/Info : Audio Coding 3
Mode extension : CM (complete main)
Format settings, Endianness : Big
Codec ID : A_AC3
Duration : 1h 33mn
Bit rate mode : Constant
Bit rate : 224 Kbps
Channel(s) : 2 channels
Channel positions : Front: L R
Sampling rate : 48.0 KHz
Bit depth : 32 bits
Compression mode : Lossy
Stream size : 150 MiB (8%)
Title : English NTSC WEBRip AAC 2.0
Language : English
Default : No
Forced : No
DURATION : 01:33:38.912000000

Text #1
ID : 4
Format : UTF-8
Codec ID : S_TEXT/UTF8
Codec ID/Info : UTF-8 Plain Text
Title : English Closed Captions
Language : English
Default : Yes
Forced : No
DURATION : 01:33:38.799000000

Text #2
ID : 5
Format : UTF-8
Codec ID : S_TEXT/UTF8
Codec ID/Info : UTF-8 Plain Text
Title : Russion
Language : Russian
Default : No
Forced : No
DURATION : 01:33:32.765000000
[/spoiler]
Оповестить о раздаче Включить оповещение на почту ( о новом торрент-файле ), когда появится раздача с похожим названием: Приключение двух нянь, Adventures in Babysitting

E-Mail адрес:
Внимание: Если вы не авторизованы, то для вас будет создана временная учетная запись (доступ к аккаунту будет прикреплен в письме).
Похожие файлы
Загрузка / Обновление
Категория Фильмы / AVI RSS лента
Добавлен (7 месяцев назад)
Просмотров 75 раз (a)
Взят 0 раз (a)
Файлы 1, 1.93 GB (2 074 624 612 байт)
Раздал ViKa  (Искать торренты)
Участники
Раздают (отдают): 0 (155), Скачивают (качают): 0 (4), Завершено: 0 (10104)
Просматривают

« Чумовые тётки (1 сезон: 1-8 серии из 8) / Knallerfrauen / 2011 / HDTVRip -†- ¿? -†- Налетчики / Marauders (Стивен С. Миллер / Steven C. Miller) [2016, боевик, триллер, криминал, BDRip-AVC] AVO »

:: Список Комментариев
Нет комментариев.

 Нет комментариев

Счетчики
Рейтинг@Mail.ru Яндекс.Метрика Seo анализ сайта

Правообладателям
По всем вопросам сотрудничества, удаления авторских файлов "пачкой", просьба отписаться по адреcу:
abuse@kino-plaza.ru

Посетители
Новый пользователь:
murzikman55
Регистрация сегодня:
Нет данных для показа
Активность сегодня:
Нет данных для показа
 
.:Kino-Plaza.ru © Tesla v. Pearl (V):.
Страничка сформирована за 0.114 секунд.